Fifty Shades Freed (2018) Unrated 1080p BluRay x264 Dual Audio [H...

Size 4.3 GB   9 seeders     Added 1 week ago

 Fifty Shades Freed (2018) Unrated 1080p BluRay x264 Dual Audio [Hindi DD5.1 - English DD5.1] - ESUB ~ Ranvijay - DusIcTv  Thanks To Hammer For Hindi Audio & Dipak Bhirman For Sync   General
Format                                   : Matroska
Format version                           : Version 4 / Version 2
File size                                : 4.27 GiB
Duration                                 : 1 h 50 min
Overall bit rate                         : 5 537 kb/s
Movie name                               : Fifty Shades Freed (2018) Unrated 1080p BluRay x264 Dual Audio [Hindi DD5.1 - English DD5.1] - ESUB ~ Ranvijay
Video
ID                                       : 1
Format                                   : AVC
Format/Info                              : Advanced Video Codec
Format profile                           : [email protected] Format settings                          : CABAC / 5 Ref Frames
Format settings, CABAC                   : Yes
Format settings, RefFrames               : 5 frames
Codec ID                                 : V_MPEG4/ISO/AVC
Duration                                 : 1 h 50 min
Bit rate                                 : 4 500 kb/s
Width                                    : 1 920 pixels
Height                                   : 800 pixels
Display aspect ratio                     : 2.40:1
Frame rate mode                          : Constant
Frame rate                               : 23.976 (24000/1001) FPS
Color space                              : YUV
Chroma subsampling                       : 4:2:0
Bit depth                                : 8 bits
Scan type                                : Progressive
Bits/(Pixel*Frame)                       : 0.122
Stream size                              : 3.47 GiB (81%)
Title                                    : ~Ranvijay~
Default                                  : Yes
Forced                                   : No
Audio #1
ID                                       : 2
Format                                   : AC-3
Format/Info                              : Audio Coding 3
Codec ID                                 : A_AC3
Duration                                 : 1 h 50 min
Bit rate mode                            : Constant
Bit rate                                 : 640 kb/s
Channel(s)                               : 6 channels
Channel positions                        : Front: L C R, Side: L R, LFE
Sampling rate                            : 48.0 kHz
Frame rate                               : 31.250 FPS (1536 SPF)
Bit depth                                : 16 bits
Compression mode                         : Lossy
Stream size                              : 505 MiB (12%)
Title                                    : ~Ranvijay~
Language                                 : Hindi
Service kind                             : Complete Main
Default                                  : Yes
Forced                                   : Yes
Audio #2
ID                                       : 3
Format                                   : AC-3
Format/Info                              : Audio Coding 3
Codec ID                                 : A_AC3
Duration                                 : 1 h 50 min
Bit rate mode                            : Constant
Bit rate                                 : 384 kb/s
Channel(s)                               : 6 channels
Channel positions                        : Front: L C R, Side: L R, LFE
Sampling rate                            : 48.0 kHz
Frame rate                               : 31.250 FPS (1536 SPF)
Bit depth                                : 16 bits
Compression mode                         : Lossy
Stream size                              : 303 MiB (7%)
Title                                    : ~Ranvijay~
Language                                 : English
Service kind                             : Complete Main
Default                                  : No
Forced                                   : No
Text
ID                                       : 4
Format                                   : PGS
Muxing mode                              : zlib
Codec ID                                 : S_HDMV/PGS
Codec ID/Info                            : Picture based subtitle format used on BDs/HD-DVDs
Duration                                 : 1 h 43 min
Bit rate                                 : 39.3 kb/s
Count of elements                        : 3150
Stream size                              : 29.2 MiB (1%)
Title                                    : ~Ranvijay~
Language                                 : English
Default                                  : Yes
Forced                                   : Yes
Menu
00:00:00.000                             : en:00:00:00.000
00:05:32.958                             : en:00:05:32.958
00:13:26.264                             : en:00:13:26.264
00:21:26.160                             : en:00:21:26.160
00:26:51.860                             : en:00:26:51.860
00:30:39.546                             : en:00:30:39.546
00:34:15.428                             : en:00:34:15.428
00:39:07.345                             : en:00:39:07.345
00:43:25.186                             : en:00:43:25.186
00:49:14.660                             : en:00:49:14.660
00:53:16.360                             : en:00:53:16.360
00:57:47.005                             : en:00:57:47.005
01:01:28.268                             : en:01:01:28.268
01:07:16.532                             : en:01:07:16.532
01:14:46.649                             : en:01:14:46.649
01:20:35.330                             : en:01:20:35.330
01:28:10.368                             : en:01:28:10.368
01:33:12.712                             : en:01:33:12.712
01:37:56.996                             : en:01:37:56.996
01:43:46.428                             : en:01:43:46.428               

udp://tracker.pirateparty.gr:6969/announce
udp://tracker.tiny-vps.com:6969/announce
udp://open.stealth.si:80/announce
udp://tracker.opentrackr.org:1337/announce
udp://tracker.internetwarriors.net:1337/announce
udp://9.rarbg.to:2740/announce
udp://tracker1.itzmx.com:8080/announce
udp://9.rarbg.me:2710/announce
udp://thetracker.org:80/announce
udp://tracker.coppersurfer.tk:6969/announce
https://tracker.fastdownload.xyz:443/announce
udp://torrentclub.tech:6969/announce
udp://open.demonii.si:1337/announce
http://seeders-paradise.org:80/announce
udp://tracker.zer0day.to:1337/announce
udp://tracker.leechers-paradise.org:6969/announce
udp://coppersurfer.tk:6969/announce

4000 symbols left
Hash f9dbb520c2c85aa51805a829c021aded0fc66760