Little.Women.2019.DVDScr.XviD.B4ND1T69

Size 935.5 MB   111 seeders     Added 4 days ago

Little.Women.2019.DVDScr.XviD.B4ND1T69    Director: Greta Gerwig
Writers: Greta Gerwig, Louisa May Alcott (based on the novel by)
Stars: Saoirse Ronan, Emma Watson, Florence Pugh
Plot/Story:
Jo March reflects back and forth on her life, telling the beloved story of the March sisters - four young women each determined to live life on their own terms.
General
Complete name : Little.Women.2019.DVDScr.XviD.B4ND1T69.avi
Format : AVI
Format/Info : Audio Video Interleave
File size : 935 MiB
Duration : 2 h 14 min
Overall bit rate : 970 kb/s
Subtitles : Yes...Included
Video
ID : 0
Format : MPEG-4 Visual
Format profile : Advanced [email protected] Format settings, BVOP : 2
Format settings, QPel : No
Format settings, GMC : No warppoints
Format settings, Matrix : Default (H.263)
Codec ID : XVID
Codec ID/Hint : XviD
Duration : 2 h 14 min
Bit rate : 829 kb/s
Width : 688 pixels
Height : 368 pixels
Display aspect ratio : 1.85:1
Frame rate : 23.976 (24000/1001) FPS
Color space : YUV
Chroma subsampling : 4:2:0
Bit depth : 8 bits
Scan type : Progressive
Compression mode : Lossy
Bits/(Pixel*Frame) : 0.137
Stream size : 799 MiB (85%)
Writing library : XviD 64
Audio
ID : 1
Format : MPEG Audio
Format version : Version 1
Format profile : Layer 3
Codec ID : 55
Codec ID/Hint : MP3
Duration : 2 h 14 min
Bit rate mode : Constant
Bit rate : 128 kb/s
Channel(s) : 2 channels
Sampling rate : 48.0 kHz
Compression mode : Lossy
Stream size : 123 MiB (13%)
Alignment : Aligned on interleaves
Interleave, duration : 24 ms (0.58 video frame)
Screenshots:  https://i.imgur.com/yZoszUZ.png
https://i.imgur.com/qFAceCI.png
https://i.imgur.com/9Ti2N7B.png
https://i.imgur.com/6UJEP9e.png
https://i.imgur.com/UEG5gZq.png
https://i.imgur.com/jxP7tTQ.png
https://i.imgur.com/6Q3m2yt.png
https://i.imgur.com/XtWg66I.png
         Please Seed For As Long As Possible
Or At Least 1:1 Ratio...Thanks
Enjoy Peeps 

udp://tracker.coppersurfer.tk:6969/announce
udp://tracker.pirateparty.gr:6969/announce
udp://tracker.opentrackr.org:1337/announce
udp://tracker.tiny-vps.com:6969/announce
udp://open.demonii.si:1337/announce
udp://tracker.torrent.eu.org:451/announce
udp://tracker.leechers-paradise.org:6969/announce
udp://tracker.zer0day.to:1337/announce
udp://tracker.leechers-paradise.org:6969/announce
udp://coppersurfer.tk:6969/announce

4000 symbols left
Hash 9680172ac2cd5f846c90dcf9cffb7ae65497aa5e