Kavita Bhabhi 4 (2020) ULLU Hindi 1080p WEB DL

Size 529.4 MB   82 seeders     Added 1 week ago

 Kavita Bhabhi ( 4 ):
Storyline:
Amazingly seductive bhabhi, pleasuring people over the phone calls. She narrates make out stories to the customers in a very romantic way and charges them with a good amount. Watch a tale full of lovely stories, Kavita Bhabhi.
Cast:
Kavita Radheshyam ( Kavita ), Nishant Pandey ( Karan, Ajay, Varun, Avinash ), Amita Nangia ( Mother-In-Law ), Divya Dwivedi ( Rashmi,Aarti )
Director:
Faisal Saif.
Video:
Resolution: 1920*1080
Format: Mkv
Language: Hindi [AAC].
Format : Matroska
Format version : Version 4
File size : 529 MiB
Duration : 30 min 24 s
Overall bit rate : 2 434 kb/s
Video
ID : 1
Format : AVC
Format/Info : Advanced Video Codec
Format profile : [email protected] Format settings : 1 Ref Frames
Format settings, CABAC : No
Format settings, Reference : 1 frame
Codec ID : V_MPEG4/ISO/AVC
Duration : 30 min 24 s
Bit rate : 2 306 kb/s
Width : 1 920 pixels
Height : 1 080 pixels
Display aspect ratio : 16:9
Frame rate mode : Constant
Frame rate : 25.000 FPS
Color space : YUV
Chroma subsampling : 4:2:0
Bit depth : 8 bits
Scan type : Progressive
Bits/(Pixel*Frame) : 0.044
Stream size : 502 MiB (95%)
Writing library : x264 core
Audio
ID : 2
Format : AAC LC
Format/Info : Advanced Audio Codec Low Complexity
Codec ID : A_AAC-2
Duration : 30 min 24 s
Bit rate : 126 kb/s
Channel(s) : 2 channels
Channel layout : L R
Sampling rate : 44.1 kHz
Frame rate : 43.066 FPS (1024 SPF)
Compression mode : Lossy
Delay relative to video : -25 ms
Stream size : 27.3 MiB (5%)
Language : Hindi
Default : Yes
Forced : No

udp://tracker.coppersurfer.tk:6969/announce
udp://tracker.pirateparty.gr:6969/announce
udp://tracker.tiny-vps.com:6969/announce
udp://open.demonii.si:1337/announce
udp://ipv4.tracker.harry.lu:80/announce
udp://denis.stalker.upeer.me:6969/announce
http://t.nyaatracker.com:80/announce
udp://tracker.opentrackr.org:1337/announce
udp://open.stealth.si:80/announce
udp://tracker.internetwarriors.net:1337/announce
udp://tracker.leechers-paradise.org:6969/announce
udp://9.rarbg.to:2800/announce
http://tracker3.itzmx.com:6961/announce
http://tracker1.itzmx.com:8080/announce
udp://tracker.zer0day.to:1337/announce
udp://tracker.leechers-paradise.org:6969/announce
udp://coppersurfer.tk:6969/announce

4000 symbols left
Hash 0491f9b57d3702c545ff366f9f5c0ed2b01e6baf